Details for this torrent 


Legend.of.the.Seeker.S01E22.HDTV.XviD - Atilla82
Type:
Video > TV shows
Files:
1
Size:
334.18 MiB (350416934 Bytes)

Spoken language(s):
English
Tag(s):
legend seeker finale fantasy Atilla82

Uploaded:
2009-06-03 22:34:35 GMT
By:
Atilla82 Trusted

Seeders:
0
Leechers:
0
Comments
2  

Info Hash:
 
4559BDBF2A5B665B0D2EE53BA846F1825C21003F
 




(Problems with magnets links are fixed by upgrading your torrent client!)
General
Complete name                    : Legend.of.the.Seeker.S01E22.HDTV.XviD-Atilla82.avi
Format/Info                      : Audio Video Interleave
File size                        : 334 MiB
Duration                         : 42mn 47s
Overall bit rate                 : 1 092 Kbps
Writing application              : MediaCoder 0.6

Video
Format                           : MPEG-4 Visual
Format profile                   : Streaming [email protected]
Format settings, BVOP            : Yes
Format settings, Matrix          : (H.263)
Codec ID                         : XVID
Duration                         : 42mn 47s
Bit rate                         : 919 Kbps
Width                            : 720 pixels
Height                           : 400 pixels
Display aspect ratio             : 16/9
Frame rate                       : 23.976 fps
Resolution                       : 24 bits
Colorimetry                      : 4:2:0
Scan type                        : Progressive
Bits/(Pixel*Frame)               : 0.133
Stream size                      : 281 MiB (84%)
Writing library                  : XviD 1.2.1 (UTC 2008-12-04)

Audio
Format                           : MPEG Audio
Format version                   : Version 1
Format profile                   : Layer 3
Codec ID                         : 55
Codec ID/Hint                    : MP3
Bit rate mode                    : Constant
Bit rate                         : 160 Kbps
Channel(s)                       : 2 channels
Sampling rate                    : 48.0 KHz
Resolution                       : 16 bits
Video delay                      : 42ms
Stream size                      : 49.0 MiB (15%)
Alignment                        : Aligned on interleaves
Interleave, duration             : 24 ms (0.58 video frame)
Interleave, preload duration     : 504 ms
Writing library                  : LAME3.98




Comments

Thank you
Download links of my favorite shows at:

atilla82-movies blogspot com